<?xml version="1.0" standalone="no"?> <!DOCTYPE svg PUBLIC "-//W3C//DTD SVG 1.0//EN" "http://www.w3.org/TR/2001/REC-SVG-20010904/DTD/svg10.dtd" > <svg xmlns="http://www.w3.org/2000/svg" width="100%" height="100%">
<defs >
<font horiz-adv-x="702" ><font-face
    font-family="Nort Mono"
    units-per-em="1000"
    panose-1="0 0 0 0 0 0 0 0 0 0"
    ascent="900"
    descent="-200"
    alphabetic="0" />
<missing-glyph horiz-adv-x="500" />
<glyph unicode=" " glyph-name="space" horiz-adv-x="705" />
<glyph unicode="!" glyph-name="exclam" horiz-adv-x="705" d="M312 690L322 700H383L393 690V173L383 163H322L312 173V690ZM403 82V20L383 0H322L302 20V82L322 102H383L403 82Z" />
<glyph unicode="&quot;" glyph-name="quotedbl" horiz-adv-x="705" d="M230 690L240 700H302L312 690V537L302 527H240L230 537V690ZM393 690L403 700H465L475 690V537L465 527H403L393 537V690Z" />
<glyph unicode="#" glyph-name="numbersign" horiz-adv-x="705" d="M426 505V690L436 700H497L507 690V505H426ZM198 304V690L208 700H269L279 690V304H198ZM293 410V491H625L635 481V420L625 410H293ZM184 410H80L70 420V481L80 491H184V410ZM426 396H507V10L497
0H436L426 10V396ZM80 209L70 219V280L80 291H412V209H80ZM521 291H625L635 280V219L625 209H521V291ZM198 196H279V10L269 0H208L198 10V196Z" />
<glyph unicode="$" glyph-name="dollar" horiz-adv-x="705" d="M393 714H312V785L322 795H383L393 785V714ZM635 511L625 501H564L554 511V583L580 609V619L554 645H543L518 619H187L162 645H151L125 619V609L151 583V427L125 401V391L151 365H162L187 391H298V309H187L70
427V583L187 700H518L635 583V511ZM312 605H393V95H312V605ZM518 391L635 273V118L518 0H187L70 118V179L80 189H141L151 179V118L125 92V81L151 56H162L187 82H518L543 56H554L580 81V92L554 118V273L580 299V310L554 335H543L518 309H407V391H518ZM393 -13V-85L383
-95H322L312 -85V-13H393Z" />
<glyph unicode="%" glyph-name="percent" horiz-adv-x="705" d="M640 657V643L359 362V237L122 0H108L64 43V58L345 338V463L582 700H596L640 657ZM113 520L77 556V664L113 700H221L257 664V556L221 520H113ZM91 561L118 534H216L243 561V659L216 687H118L91 659V561ZM591
180L627 144V36L591 0H483L447 36V144L483 180H591ZM613 139L586 167H488L461 139V41L488 14H586L613 41V139Z" />
<glyph unicode="&amp;" glyph-name="ampersand" horiz-adv-x="705" d="M187 0L70 118V273L132 335V365L70 427V583L187 700H462L472 690V629L462 619H187L162 645H151L125 619V609L151 583V427L125 401V391L151 365H162L187 391H498V401L472 427V514L482 524H544L554
514V427L528 401V391H625L635 381V320L625 309H528V299L554 273V118L436 0H187ZM187 309L162 335H151L125 310V299L151 273V118L125 92V81L151 56H162L187 82H436L462 56H472L498 81V92L472 118V273L498 299V309H187Z" />
<glyph unicode="&apos;" glyph-name="quotesingle" horiz-adv-x="705" d="M312 690L322 700H383L393 690V537L383 527H322L312 537V690Z" />
<glyph unicode="(" glyph-name="parenleft" horiz-adv-x="705" d="M248 664L366 782H447L457 771V710L447 700H366L340 726H329L303 700V690L329 664V36L303 10V0L329 -26H340L366 0H447L457 -10V-71L447 -81H366L248 36V664Z" />
<glyph unicode=")" glyph-name="parenright" horiz-adv-x="705" d="M339 -81H258L248 -71V-10L258 0H339L365 -26H376L402 0V10L376 36V664L402 690V700L376 726H365L339 700H258L248 710V771L258 782H339L457 664V36L339 -81Z" />
<glyph unicode="*" glyph-name="asterisk" horiz-adv-x="705" d="M379 591L468 643L477 640L495 608L493 599L404 546L493 497L495 487L477 453L468 451L379 503V400L373 393H335L329 400V503L237 451L230 453L210 487L212 497L302 546L212 601L210 610L230 642L237
645L329 591V694L335 700H373L379 694V591Z" />
<glyph unicode="+" glyph-name="plus" horiz-adv-x="705" d="M311 565L321 575H382L392 565V427L366 401V391L392 365H402L428 391H566L577 381V320L566 309H428L402 335H392L366 310V299L392 273V135L382 125H321L311 135V273L337 299V310L311 335H301L275 309H137L127
320V381L137 391H275L301 365H311L337 391V401L311 427V565Z" />
<glyph unicode="," glyph-name="comma" horiz-adv-x="705" d="M405 85V22L321 -62L311 -52L337 -25V-14L300 22V85L321 106H384L405 85Z" />
<glyph unicode="-" glyph-name="hyphen" horiz-adv-x="705" d="M553 320L542 309H163L152 320V381L163 391H542L553 381V320Z" />
<glyph unicode="." glyph-name="period" horiz-adv-x="705" d="M384 0H321L300 21V84L321 105H384L405 84V21L384 0Z" />
<glyph unicode="/" glyph-name="slash" horiz-adv-x="705" d="M346 338V463L582 700H597L640 657V643L359 362V237L123 0H108L65 43V58L346 338Z" />
<glyph unicode="0" glyph-name="zero" horiz-adv-x="705" d="M518 700L635 583V117L615 97L554 158V583L580 608V619L554 645H543L518 619H228L167 680L187 700H518ZM158 670L359 469V334L605 88L547 30L346 231V366L100 612L158 670ZM90 603L151 542V117L125
92V81L151 55H162L187 81H477L538 20L518 0H187L70 117V583L90 603Z" />
<glyph unicode="1" glyph-name="one" horiz-adv-x="705" d="M311 455L337 481V491L311 517H301L275 491H137L127 501V562L137 573H275L301 547H311L337 572V583L311 609V690L321 700H382L392 690V118L366 92V81L392 56H402L428 82H624L635 71V10L624 0H80L70 10V71L80
82H275L301 56H311L337 81V92L311 118V455Z" />
<glyph unicode="2" glyph-name="two" horiz-adv-x="705" d="M70 583L187 700H518L635 583V427L518 309H187L162 335H151L125 310V299L151 273V118L125 92V81L151 56H162L187 82H625L635 71V10L625 0H80L70 10V273L187 391H518L543 365H554L580 391V401L554 427V583L580
609V619L554 645H543L518 619H187L162 645H151L125 619V609L151 583V511L141 501H80L70 511V583Z" />
<glyph unicode="3" glyph-name="three" horiz-adv-x="705" d="M187 0L70 118V189L80 199H141L151 189V118L125 92V81L151 56H162L187 82H517L543 56H554L580 81V92L554 118V273L580 299V310L554 335H543L517 309H243L233 320V381L243 391H517L543 365H554L580
391V401L554 427V583L580 609V619L554 645H543L517 619H187L162 645H151L125 619V609L151 583V511L141 501H80L70 511V583L187 700H517L635 583V427L573 365V335L635 273V118L517 0H187Z" />
<glyph unicode="4" glyph-name="four" horiz-adv-x="705" d="M554 273L580 299V310L554 335H543L518 309H187L70 427V690L80 700H141L151 690V427L125 401V391L151 365H162L187 391H518L543 365H554L580 391V401L554 427V690L564 700H625L635 690V10L625 0H564L554
10V273Z" />
<glyph unicode="5" glyph-name="five" horiz-adv-x="705" d="M70 179L80 189H141L151 179V118L125 92V81L151 56H162L187 82H518L543 56H554L580 81V92L554 118V273L580 299V310L554 335H543L518 309H187L70 427V690L80 700H595L605 690V629L595 619H187L162 645H151L125
619V609L151 583V427L125 401V391L151 365H162L187 391H518L635 273V118L518 0H187L70 118V179Z" />
<glyph unicode="6" glyph-name="six" horiz-adv-x="705" d="M635 511L625 501H564L554 511V583L580 609V619L554 645H543L518 619H187L162 645H151L125 619V609L151 583V427L125 401V391L151 365H162L187 391H518L635 273V118L518 0H187L70 118V583L187 700H518L635
583V511ZM187 309L162 335H151L125 310V299L151 273V118L125 92V81L151 56H162L187 82H518L543 56H554L580 81V92L554 118V273L580 299V310L554 335H543L518 309H187Z" />
<glyph unicode="7" glyph-name="seven" horiz-adv-x="705" d="M312 314L484 486H518L543 460H554L580 486V497L554 523V583L580 609V619L554 645H543L518 619H80L70 629V690L80 700H625L635 690V523L393 281V10L383 0H322L312 10V314Z" />
<glyph unicode="8" glyph-name="eight" horiz-adv-x="705" d="M187 0L70 118V273L132 335V365L70 427V583L187 700H518L635 583V427L573 365V335L635 273V118L518 0H187ZM187 619L162 645H151L125 619V609L151 583V427L125 401V391L151 365H162L187 391H518L543
365H554L580 391V401L554 427V583L580 609V619L554 645H543L518 619H187ZM187 309L162 335H151L125 310V299L151 273V118L125 92V81L151 56H162L187 82H518L543 56H554L580 81V92L554 118V273L580 299V310L554 335H543L518 309H187Z" />
<glyph unicode="9" glyph-name="nine" horiz-adv-x="705" d="M70 179L80 189H141L151 179V118L125 92V81L151 56H162L187 82H518L543 56H554L580 81V92L554 118V273L580 299V310L554 335H543L518 309H187L70 427V583L187 700H518L635 583V118L518 0H187L70 118V179ZM518
391L543 365H554L580 391V401L554 427V583L580 609V619L554 645H543L518 619H187L162 645H151L125 619V609L151 583V427L125 401V391L151 365H162L187 391H518Z" />
<glyph unicode=":" glyph-name="colon" horiz-adv-x="705" d="M384 365H321L300 386V449L321 470H384L405 449V386L384 365ZM384 0H321L300 21V84L321 105H384L405 84V21L384 0Z" />
<glyph unicode=";" glyph-name="semicolon" horiz-adv-x="705" d="M405 386L384 365H321L300 386V449L321 470H384L405 449V386ZM405 85V22L321 -62L311 -52L337 -25V-14L300 22V85L321 106H384L405 85Z" />
<glyph unicode="&lt;" glyph-name="less" horiz-adv-x="705" d="M457 700H471L515 657V643L248 376H211L204 368V332L211 325H248L515 58V43L471 0H457L190 267V433L457 700Z" />
<glyph unicode="=" glyph-name="equal" horiz-adv-x="705" d="M552 490V429L541 418H162L152 429V490L162 500H541L552 490ZM541 256L552 246V184L541 174H162L152 184V246L162 256H541Z" />
<glyph unicode="&gt;" glyph-name="greater" horiz-adv-x="705" d="M515 267L248 0H234L190 43V58L457 325H494L501 332V368L494 376H457L190 643V657L234 700H248L515 433V267Z" />
<glyph unicode="?" glyph-name="question" horiz-adv-x="705" d="M312 295L489 472H523L548 446H559L585 471V482L559 508V583L585 609V619L559 645H548L523 619H182L157 645H146L120 619V609L146 583V501L136 491H75L65 501V583L182 700H523L640 583V508L393
261V173L383 163H322L312 173V295ZM403 82V20L383 0H322L302 20V82L322 102H383L403 82Z" />
<glyph unicode="@" glyph-name="at" horiz-adv-x="705" d="M635 10L625 0H350L233 118V383L350 500H518L554 464V583L580 609V619L554 645H543L518 619H187L162 645H151L125 619V609L151 583V10L141 0H80L70 10V583L187 700H518L635 583V10ZM518 82L543 56H554L580
81V92L554 118V445H543L518 419H350L324 445H314L288 419V409L314 383V118L288 92V81L314 56H324L350 82H518Z" />
<glyph unicode="A" glyph-name="A" horiz-adv-x="705" d="M634 501V10L623 0H562L552 10V233L578 259V269L552 295H542L516 269H188L162 295H152L126 269V259L152 233V10L142 0H81L71 10V502L269 700H435L634 501ZM578 360L552 386V469L378 643V679L370 687H334L326
679V643L152 469V386L126 360V350L152 324H162L188 350H516L542 324H552L578 350V360Z" />
<glyph unicode="B" glyph-name="B" horiz-adv-x="705" d="M572 365V335L634 273V118L517 0H82L71 10V690L82 700H517L634 583V427L572 365ZM553 335H543L517 309H189L163 335H153L127 310V299L153 273V118L127 92V81L153 56H163L189 82H517L543 56H553L579 81V92L553
118V273L579 299V310L553 335ZM579 391V401L553 427V583L579 609V619L553 645H543L517 619H189L163 645H153L127 619V609L153 583V427L127 401V391L153 365H163L189 391H517L543 365H553L579 391Z" />
<glyph unicode="C" glyph-name="C" horiz-adv-x="705" d="M635 472L625 462H564L554 472V583L580 609V619L554 645H543L518 619H187L162 645H151L125 619V609L151 583V118L125 92V81L151 56H162L187 82H518L543 56H554L580 81V92L554 118V229L564 239H625L635
229V118L518 0H187L70 118V583L187 700H518L635 583V472Z" />
<glyph unicode="D" glyph-name="D" horiz-adv-x="705" d="M634 583V118L516 0H82L71 10V690L82 700H516L634 583ZM578 619L552 645H542L516 619H189L163 645H153L127 619V609L153 583V118L127 92V81L153 56H163L189 82H516L542 56H552L578 81V92L552 118V583L578
609V619Z" />
<glyph unicode="E" glyph-name="E" horiz-adv-x="705" d="M80 0L70 10V690L80 700H625L635 690V629L625 619H187L162 645H151L125 619V609L151 583V427L125 401V391L151 365H162L187 391H544L554 381V320L544 309H187L162 335H151L125 310V299L151 273V118L125
92V81L151 56H162L187 82H625L635 71V10L625 0H80Z" />
<glyph unicode="F" glyph-name="F" horiz-adv-x="705" d="M151 10L141 0H80L70 10V690L80 700H625L635 690V629L625 619H187L162 645H151L125 619V609L151 583V427L125 401V391L151 365H162L187 391H544L554 381V320L544 309H187L162 335H151L125 310V299L151 273V10Z" />
<glyph unicode="G" glyph-name="G" horiz-adv-x="705" d="M635 511L625 501H564L554 511V583L580 609V619L554 645H543L518 619H187L162 645H151L125 619V609L151 583V118L125 92V81L151 56H162L187 82H518L543 56H554L580 81V92L554 118V273L580 299V310L554
335H543L518 309H262L252 320V381L262 391H518L635 273V118L518 0H187L70 118V583L187 700H518L635 583V511Z" />
<glyph unicode="H" glyph-name="H" horiz-adv-x="705" d="M554 273L580 299V310L554 335H543L518 309H187L162 335H151L125 310V299L151 273V10L141 0H80L70 10V690L80 700H141L151 690V427L125 401V391L151 365H162L187 391H518L543 365H554L580 391V401L554
427V690L564 700H625L635 690V10L625 0H564L554 10V273Z" />
<glyph unicode="I" glyph-name="I" horiz-adv-x="705" d="M429 619L403 645H393L367 619V609L393 583V118L367 92V81L393 56H403L429 82H625L635 71V10L625 0H80L70 10V71L80 82H275L301 56H312L337 81V92L311 118V583L337 609V619L312 645H301L275 619H137L127
629V690L137 700H567L577 690V629L567 619H429Z" />
<glyph unicode="J" glyph-name="J" horiz-adv-x="705" d="M554 583L580 609V619L554 645H543L518 619H220L210 629V690L220 700H625L635 690V118L518 0H187L70 118V229L80 239H141L151 229V118L125 92V81L151 56H162L187 82H518L543 56H554L580 81V92L554 118V583Z" />
<glyph unicode="K" glyph-name="K" horiz-adv-x="705" d="M70 690L80 700H141L151 690V427L125 401V391L151 365H162L187 391H363L484 512H518L543 486H554L580 512V522L554 548V690L564 700H625L635 690V548L452 365V335L635 153V10L625 0H564L554 10V153L580
178V189L554 215H543L518 189H484L363 309H187L162 335H151L125 310V299L151 273V10L141 0H80L70 10V690Z" />
<glyph unicode="L" glyph-name="L" horiz-adv-x="705" d="M151 118L125 92V81L151 56H162L187 82H625L635 71V10L625 0H80L70 10V690L80 700H141L151 690V118Z" />
<glyph unicode="M" glyph-name="M" horiz-adv-x="705" d="M322 250L312 260V431H269L162 538H151V10L141 0H80L70 10V690L80 700H141L151 690V568H162L187 594H221L327 488V452L334 445H371L378 452V488L484 594H518L543 568H554V690L564 700H625L635 690V10L625
0H564L554 10V538H543L436 431H393V260L383 250H322Z" />
<glyph unicode="N" glyph-name="N" horiz-adv-x="705" d="M70 690L80 700H141L151 690V588H162L187 614H221L543 286H554V690L564 700H625L635 690V10L625 0H564L554 10V257H543L518 231H484L162 559H151V10L141 0H80L70 10V690Z" />
<glyph unicode="O" glyph-name="O" horiz-adv-x="705" d="M634 583V117L516 0H188L71 117V583L188 700H516L634 583ZM579 619L553 645H543L517 619H189L163 645H153L127 619V608L153 583V117L127 92V81L153 55H163L189 81H517L543 55H553L579 81V92L553 117V583L579
608V619ZM384 288H321L300 309V392L321 413H384L405 392V309L384 288Z" />
<glyph unicode="P" glyph-name="P" horiz-adv-x="705" d="M634 583V427L517 309H188L162 335H152L126 310V299L152 273V10L142 0H81L71 10V690L81 700H517L634 583ZM579 619L553 645H543L517 619H188L162 645H152L126 619V609L152 583V427L126 401V391L152 365H162L188
391H517L543 365H553L579 391V401L553 427V583L579 609V619Z" />
<glyph unicode="Q" glyph-name="Q" horiz-adv-x="705" d="M634 583V118L516 0H429L403 26H392L367 0V-10L393 -36V-117L383 -127H321L311 -117V-36L337 -10V0L311 26H301L275 0H189L71 118V583L189 700H516L634 583ZM578 619L552 645H542L516 619H189L163 645H153L127
619V609L153 583V118L127 92V81L153 56H163L189 82H275L337 20H367L429 82H516L542 56H552L578 81V92L552 118V583L578 609V619Z" />
<glyph unicode="R" glyph-name="R" horiz-adv-x="705" d="M571 365V335L634 273V10L623 0H562L552 10V273L578 299V310L552 335H542L516 309H188L162 335H152L126 310V299L152 273V10L142 0H81L71 10V690L81 700H516L634 583V427L571 365ZM578 391V401L552 427V583L578
609V619L552 645H542L516 619H188L162 645H152L126 619V609L152 583V427L126 401V391L152 365H162L188 391H516L542 365H552L578 391Z" />
<glyph unicode="S" glyph-name="S" horiz-adv-x="705" d="M635 511L625 501H564L554 511V583L580 609V619L554 645H543L518 619H187L162 645H151L125 619V609L151 583V427L125 401V391L151 365H162L187 391H518L635 273V118L518 0H187L70 118V189L80 199H141L151
189V118L125 92V81L151 56H162L187 82H518L543 56H554L580 81V92L554 118V273L580 299V310L554 335H543L518 309H187L70 427V583L187 700H518L635 583V511Z" />
<glyph unicode="T" glyph-name="T" horiz-adv-x="705" d="M429 619L403 645H393L367 619V609L393 583V10L383 0H322L312 10V583L338 609V619L312 645H302L276 619H75L65 629V690L75 700H630L640 690V629L630 619H429Z" />
<glyph unicode="U" glyph-name="U" horiz-adv-x="705" d="M187 0L70 118V690L80 700H141L151 690V118L125 92V81L151 56H162L187 82H518L543 56H554L580 81V92L554 118V690L564 700H625L635 690V118L518 0H187Z" />
<glyph unicode="V" glyph-name="V" horiz-adv-x="705" d="M151 234L327 58V21L334 14H371L378 21V58L554 234V690L564 700H625L635 690V201L436 0H269L70 201V690L80 700H141L151 690V234Z" />
<glyph unicode="W" glyph-name="W" horiz-adv-x="705" d="M70 690L80 700H141L151 690V118L125 92V81L151 56H162L187 82H276L302 56H312L338 81V92L312 118V471L322 481H383L393 471V118L367 92V81L393 56H403L429 82H518L543 56H554L580 81V92L554 118V690L564
700H625L635 690V118L518 0H429L367 62H338L276 0H187L70 118V690Z" />
<glyph unicode="X" glyph-name="X" horiz-adv-x="705" d="M151 577L327 401V364L334 357H371L378 364V401L554 577V690L564 700H625L635 690V543L457 365V335L635 157V10L625 0H564L554 10V123L378 299V336L371 343H334L327 336V299L151 123V10L141 0H80L70 10V157L248
335V365L70 543V690L80 700H141L151 690V577Z" />
<glyph unicode="Y" glyph-name="Y" horiz-adv-x="705" d="M146 582L327 401V364L334 357H371L378 364V401L559 582V690L569 700H630L640 690V548L436 343H393V10L383 0H322L312 10V343H269L65 548V690L75 700H136L146 690V582Z" />
<glyph unicode="Z" glyph-name="Z" horiz-adv-x="705" d="M80 619L70 629V690L80 700H518L635 583V427L518 309H187L162 335H151L125 310V299L151 273V118L125 92V81L151 56H162L187 82H625L635 71V10L625 0H187L70 118V273L187 391H518L543 365H554L580 391V401L554
427V583L580 609V619L554 645H543L518 619H80Z" />
<glyph unicode="[" glyph-name="bracketleft" horiz-adv-x="705" d="M258 -81L248 -71V771L258 782H447L457 771V710L447 700H366L340 726H329L303 700V690L329 664V36L303 10V0L329 -26H340L366 0H447L457 -10V-71L447 -81H258Z" />
<glyph unicode="\" glyph-name="backslash" horiz-adv-x="705" d="M640 43L597 0H582L346 237V362L65 643V657L108 700H123L359 463V338L640 58V43Z" />
<glyph unicode="]" glyph-name="bracketright" horiz-adv-x="705" d="M248 -71V-10L258 0H339L365 -26H376L402 0V10L376 36V664L402 690V700L376 726H365L339 700H258L248 710V771L258 782H447L457 771V-71L447 -81H258L248 -71Z" />
<glyph unicode="^" glyph-name="asciicircum" horiz-adv-x="705" d="M435 700L552 583V569L509 526H494L378 643V679L370 687H334L327 679V643L210 526H195L152 569V583L269 700H435Z" />
<glyph unicode="_" glyph-name="underscore" horiz-adv-x="705" d="M640 10L629 0H76L65 10V71L76 82H629L640 71V10Z" />
<glyph unicode="`" glyph-name="grave" horiz-adv-x="705" d="M400 604L253 750V763L293 804H306L453 657V644L413 604H400Z" />
<glyph unicode="a" glyph-name="a" horiz-adv-x="705" d="M97 429V490L108 500H522L640 383V10L629 0H183L65 118V173L183 291H522L548 265H558L584 291V301L558 327V383L584 409V419L558 445H548L522 419H108L97 429ZM522 82L548 56H558L584 81V92L558 118V173L584
199V210L558 235H548L522 209H183L157 235H147L121 210V199L147 173V118L121 92V81L147 56H157L183 82H522Z" />
<glyph unicode="b" glyph-name="b" horiz-adv-x="705" d="M639 383V118L521 0H77L66 10V690L77 700H138L148 690V536L122 510V500L148 474H158L184 500H521L639 383ZM583 419L557 445H547L521 419H184L158 445H148L122 419V409L148 383V118L122 92V81L148 56H158L184
82H521L547 56H557L583 81V92L557 118V383L583 409V419Z" />
<glyph unicode="c" glyph-name="c" horiz-adv-x="705" d="M640 331L630 321H569L559 331V383L585 409V419L559 445H549L523 419H183L157 445H147L121 419V409L147 383V118L121 92V81L147 56H157L183 82H523L549 56H559L585 81V92L559 118V169L569 179H630L640
169V118L523 0H183L65 118V383L183 500H523L640 383V331Z" />
<glyph unicode="d" glyph-name="d" horiz-adv-x="705" d="M183 0L65 118V383L183 500H522L548 474H558L584 500V510L558 536V690L568 700H629L640 690V10L629 0H183ZM558 383L584 409V419L558 445H548L522 419H183L157 445H147L121 419V409L147 383V118L121 92V81L147
56H157L183 82H522L548 56H558L584 81V92L558 118V383Z" />
<glyph unicode="e" glyph-name="e" horiz-adv-x="705" d="M608 71V10L597 0H183L65 118V383L183 500H522L640 383V327L522 209H183L157 235H147L121 210V199L147 173V118L121 92V81L147 56H157L183 82H597L608 71ZM183 419L157 445H147L121 419V409L147 383V327L121
301V291L147 265H157L183 291H522L548 265H558L584 291V301L558 327V383L584 409V419L558 445H548L522 419H183Z" />
<glyph unicode="f" glyph-name="f" horiz-adv-x="705" d="M245 383L271 409V419L245 445H235L209 419H76L65 429V490L76 500H209L235 474H245L271 500V510L245 536V583L363 700H630L640 690V629L630 619H363L337 645H326L301 619V609L326 583V500H605L615 490V429L605
419H326V10L316 0H255L245 10V383Z" />
<glyph unicode="g" glyph-name="g" horiz-adv-x="705" d="M639 490V-82L522 -200H107L97 -190V-129L107 -118H522L547 -144H558L584 -119V-108L558 -82V-36L584 -10V0L558 26H547L522 0H183L66 118V383L183 500H629L639 490ZM584 419L558 445H547L522 419H183L158
445H147L121 419V409L147 383V118L121 92V81L147 56H158L183 82H522L547 56H558L584 81V92L558 118V383L584 409V419Z" />
<glyph unicode="h" glyph-name="h" horiz-adv-x="705" d="M145 10L135 0H74L65 10V690L74 700H136L146 690V536L119 510V500L145 474H156L182 500H523L640 383V10L630 0H569L559 10V383L585 409V419L559 445H548L523 419H182L156 445H145L119 419V409L145 383V10Z" />
<glyph unicode="i" glyph-name="i" horiz-adv-x="705" d="M385 586H321L301 606V670L321 690H385L405 670V606L385 586ZM394 118L368 92V81L394 56H404L430 82H630L640 71V10L630 0H75L65 10V71L75 82H276L302 56H313L338 81V92L312 118V383L338 409V419L313 445H302L276
419H138L128 429V490L138 500H384L394 490V118Z" />
<glyph unicode="j" glyph-name="j" horiz-adv-x="705" d="M619 586H556L535 606V670L556 690H619L640 670V606L619 586ZM640 -82L522 -200H75L65 -190V-129L75 -118H522L548 -144H559L585 -119V-108L559 -82V383L585 409V419L559 445H548L522 419H215L205 429V490L215
500H630L640 490V-82Z" />
<glyph unicode="k" glyph-name="k" horiz-adv-x="705" d="M65 690L76 700H137L147 690V327L121 301V291L147 265H157L183 291H392L488 387H522L548 361H558L584 387V397L558 423V490L568 500H629L640 490V423L482 265V235L640 78V10L629 0H568L558 10V78L584 103V114L558
140H548L522 114H488L392 209H183L157 235H147L121 210V199L147 173V10L137 0H76L65 10V690Z" />
<glyph unicode="l" glyph-name="l" horiz-adv-x="705" d="M393 118L367 92V81L393 56H403L429 82H630L640 71V10L630 0H75L65 10V71L75 82H275L301 56H312L337 81V92L311 118V583L337 609V619L312 645H301L275 619H137L127 629V690L137 700H383L393 690V118Z" />
<glyph unicode="m" glyph-name="m" horiz-adv-x="705" d="M276 500L338 438H367L429 500H528L645 383V10L635 0H574L564 10V383L590 409V419L564 445H554L528 419H429L403 445H393L367 419V409L393 383V185L383 175H322L312 185V383L338 409V419L312 445H302L276
419H178L152 445H142L116 419V409L142 383V10L132 0H71L60 10V490L71 500H276Z" />
<glyph unicode="n" glyph-name="n" horiz-adv-x="705" d="M522 500L640 383V10L630 0H569L559 10V383L585 409V419L559 445H548L522 419H182L157 445H146L120 419V409L146 383V10L136 0H75L65 10V490L75 500H522Z" />
<glyph unicode="o" glyph-name="o" horiz-adv-x="705" d="M183 0L65 118V383L183 500H522L640 383V118L522 0H183ZM183 419L157 445H147L121 419V409L147 383V118L121 92V81L147 56H157L183 82H522L548 56H558L584 81V92L558 118V383L584 409V419L558 445H548L522
419H183ZM384 198H321L300 219V282L321 303H384L405 282V219L384 198Z" />
<glyph unicode="p" glyph-name="p" horiz-adv-x="705" d="M522 500L640 383V118L522 0H183L157 26H147L121 0V-10L147 -36V-190L137 -200H76L65 -190V490L76 500H522ZM147 118L121 92V81L147 56H157L183 82H522L548 56H558L584 81V92L558 118V383L584 409V419L558
445H548L522 419H183L157 445H147L121 419V409L147 383V118Z" />
<glyph unicode="q" glyph-name="q" horiz-adv-x="705" d="M629 500L640 490V-199L629 -209H568L558 -199V-36L584 -10V0L558 26H548L522 0H183L65 118V383L183 500H629ZM558 383L584 409V419L558 445H548L522 419H183L157 445H147L121 419V409L147 383V118L121
92V81L147 56H157L183 82H522L548 56H558L584 81V92L558 118V383Z" />
<glyph unicode="r" glyph-name="r" horiz-adv-x="705" d="M522 500L640 383V331L630 321H569L559 331V383L585 409V419L559 445H548L522 419H182L157 445H146L120 419V409L146 383V10L136 0H75L65 10V490L75 500H522Z" />
<glyph unicode="s" glyph-name="s" horiz-adv-x="705" d="M548 56H558L584 81V92L558 118V173L584 199V210L558 235H548L522 209H183L65 327V383L183 500H597L608 490V429L597 419H183L157 445H147L121 419V409L147 383V327L121 301V291L147 265H157L183 291H522L640
173V118L522 0H108L97 10V71L108 82H522L548 56Z" />
<glyph unicode="t" glyph-name="t" horiz-adv-x="705" d="M245 690L255 700H316L326 690V500H605L616 490V429L605 419H326V118L301 92V81L326 56H337L363 82H629L640 71V10L629 0H363L245 118V383L271 409V419L245 445H235L209 419H76L65 429V490L76 500H209L235
474H245L271 500V510L245 536V690Z" />
<glyph unicode="u" glyph-name="u" horiz-adv-x="705" d="M182 0L65 118V490L75 500H136L146 490V118L120 92V81L146 56H157L182 82H523L548 56H559L585 81V92L559 118V490L569 500H630L640 490V10L630 0H182Z" />
<glyph unicode="v" glyph-name="v" horiz-adv-x="705" d="M147 238L327 58V21L334 14H371L378 21V58L558 238V490L568 500H629L640 490V204L436 0H269L65 204V490L76 500H137L147 490V238Z" />
<glyph unicode="w" glyph-name="w" horiz-adv-x="705" d="M429 0L367 62H338L276 0H178L60 118V490L71 500H132L142 490V118L116 92V81L142 56H152L178 82H276L302 56H312L338 81V92L312 118V335L322 345H383L393 335V118L367 92V81L393 56H403L429 82H528L554
56H564L590 81V92L564 118V490L574 500H635L645 490V118L528 0H429Z" />
<glyph unicode="x" glyph-name="x" horiz-adv-x="705" d="M147 475L327 301V264L334 257H371L378 264V301L558 475V490L568 500H629L640 490V442L457 265V230L640 53V10L629 0H568L558 10V19L378 199V236L371 243H334L327 236V199L147 19V10L137 0H76L65 10V53L248
230V265L65 442V490L76 500H137L147 490V475Z" />
<glyph unicode="y" glyph-name="y" horiz-adv-x="705" d="M558 490L568 500H629L640 490V-82L522 -200H107L97 -190V-129L107 -118H522L548 -144H558L584 -119V-108L558 -82V-36L584 -10V0L558 26H548L522 0H183L65 118V490L76 500H137L147 490V118L121 92V81L147
56H157L183 82H522L548 56H558L584 81V92L558 118V490Z" />
<glyph unicode="z" glyph-name="z" horiz-adv-x="705" d="M629 82L640 71V10L629 0H183L65 118V173L183 291H522L548 265H558L584 291V301L558 327V383L584 409V419L558 445H548L522 419H76L65 429V490L76 500H522L640 383V327L522 209H183L157 235H147L121 210V199L147
173V118L121 92V81L147 56H157L183 82H629Z" />
<glyph unicode="{" glyph-name="braceleft" horiz-adv-x="705" d="M388 427L311 350L388 273V36L362 10V0L388 -26H398L424 0H506L516 -10V-71L506 -81H424L307 36V273L333 299V310L307 335H297L271 309H199L189 320V381L199 391H271L297 365H307L333 391V401L307
427V664L424 782H506L516 771V710L506 700H424L398 726H388L362 700V690L388 664V427Z" />
<glyph unicode="|" glyph-name="bar" horiz-adv-x="705" d="M312 818L322 828H383L393 818V-117L383 -127H322L312 -117V818Z" />
<glyph unicode="}" glyph-name="braceright" horiz-adv-x="705" d="M317 427V664L343 690V700L317 726H307L281 700H199L189 710V771L199 782H281L398 664V427L372 401V391L398 365H408L434 391H506L516 381V320L506 309H434L408 335H398L372 310V299L398 273V36L281
-81H199L189 -71V-10L199 0H281L307 -26H317L343 0V10L317 36V273L394 350L317 427Z" />
<glyph unicode="~" glyph-name="asciitilde" horiz-adv-x="705" d="M393 307L367 282V271L393 245H403L429 271H473L498 245H509L535 271V282L509 307V459L519 469H580L590 459V307L473 190H429L312 307V352L338 377V388L312 414H302L276 388H232L207 414H196L170
388V377L196 352V200L186 190H125L115 200V352L232 469H276L393 352V307Z" />
</font>
</defs>
</svg>
